2006年01月21日

GoldWaveを使用して音楽ファイル(mp3,wavなど)を固定長のファイルへ分割出力する3

WAVファイルや、mp3ファイルなどの音楽ファイルを固定長のファイルへ分割する方法です。

 (例)KOTOKO「421 -a will-」の場合

  曲の長さ 4分40秒
  分割する単位 30秒
  → 30秒のファイルが9つ、10秒のファイルが1つ 作成される

用意するもの

・GoldWave http://www.goldwave.com/

  ※シェアウェアと書いてあるが、特に機能制限などはない(と思っています)



1.分割する時間をcueファイルで作成しておく

  ※GoldWaveの機能内でcueファイルを作成することも出来ます

FILE "d:デスクトップKOTOKO - 421−a will−.mp3" MP3
  TRACK 01 AUDIO
    TITLE "01"
    INDEX 01 00:30:00
  TRACK 02 AUDIO
    TITLE "02"
    INDEX 01 01:00:00
  TRACK 03 AUDIO
    TITLE "03"
    INDEX 01 01:30:00
  TRACK 04 AUDIO
    TITLE "04"
    INDEX 01 02:00:00
  TRACK 05 AUDIO
    TITLE "05"
    INDEX 01 02:30:00
  TRACK 06 AUDIO
    TITLE "06"
    INDEX 01 03:00:00
  TRACK 07 AUDIO
    TITLE "07"
    INDEX 01 03:30:00
  TRACK 08 AUDIO
    TITLE "08"
    INDEX 01 04:00:00
  TRACK 09 AUDIO
    TITLE "09"
    INDEX 01 04:30:00


2.GoldWaveで音楽ファイルを開く

goldwave_0

 

 

goldwave_1

 

 

 

 


3.メニューバーの「Edit」−「Cue Point」−「Edit Cue Points...」を選択

goldwave_2

 

 

 

 

 

 

 

goldwave_3

 

 

 

 


4.右下の開くボタンで、先程作成したcueファイルを開く
  もしくは、Newで分割ポイントを手動で作成する

goldwave_4

 

 

 

 


5.「Split File...」ボタンを押して、「OK」を押す

goldwave_5

 

 

 

 


6.ファイルが分割されて保存された

goldwave_6



Posted by izumififty at 00:08│Comments(2)TrackBack(0) フリーソフト 

この記事へのトラックバックURL

http://trackback.blogsys.jp/livedoor/izumififty/50533269
この記事へのコメント
1
mnxric jehzvsodq irfd zebnq xkgybu vtwa xvjnlo
Posted by szgxdb omwba at 2008年02月19日 09:21
1
cdlgnyij jhyfldxa jezyxw znio dybasqi fqsakpng lsfqer
Posted by vazmpqk xuydqln at 2008年02月19日 09:33